FFmpeg Scripts

Aus Wiki.csoft.at

(Unterschied zwischen Versionen)
Zeile 1: Zeile 1:
==Eigenschaften einer Videodatei anzeigen==
==Eigenschaften einer Videodatei anzeigen==
  ffmpeg -i input.mp4
  ffmpeg -i input.mp4
 +
 +
Eine typische Ausgabe dieses Befehls lautet:
 +
 +
Input #0, mov,mp4,m4a,3gp,3g2,mj2, from 'output.iphone.mp4':
 +
  Duration: 00:00:14.95, start: 0.000000, bitrate: 601 kb/s
 +
    Stream #0.0(und): Video: h264, yuv420p, 640x480 [PAR 1:1 DAR 4:3], 25 tbr, 25 tbn, 50 tbc
 +
    Stream #0.1(und): Audio: aac, 48000 Hz, stereo, s16
==iPhone Ringtone Converter==
==iPhone Ringtone Converter==

Version vom 16. Oktober 2009, 16:23 Uhr

Eigenschaften einer Videodatei anzeigen

ffmpeg -i input.mp4

Eine typische Ausgabe dieses Befehls lautet:

Input #0, mov,mp4,m4a,3gp,3g2,mj2, from 'output.iphone.mp4':
  Duration: 00:00:14.95, start: 0.000000, bitrate: 601 kb/s
    Stream #0.0(und): Video: h264, yuv420p, 640x480 [PAR 1:1 DAR 4:3], 25 tbr, 25 tbn, 50 tbc
    Stream #0.1(und): Audio: aac, 48000 Hz, stereo, s16

iPhone Ringtone Converter

ffmpeg -i input.mp4 -f ipod -ar 44100 -ab 128k -t 40 -vn -y ringtone.m4r

Siehe auch